Фильм Спектр Скачать Торрент

General Complete name : Sp3ctr Новогодние Песни Скачать Бесплатно. 2015. D. CAMRip. PROPER. 1400MB avi Format : AVI Format/Info : Audio Video Interleave File size : 1 Маникам Скачать Бесплатно На Русском. 46 GiB Duration : 2h 28mn Overall bit rate : 1 408 Kbps Writing application : VirtualDubMod 1. 5. 10. 3 | www. virtualdub-fr org || (build 2550/release) Writing library : VirtualDubMod build 2550/release Video ID : 0 Format : MPEG-4 Visual Format profile : Advanced Simple@L5 Format settings, BVOP : 2 Format settings, QPel : No Format settings, GMC : No warppoints Format settings, Matrix : Default (MPEG) Codec ID : XVID Codec ID/Hint : XviD Duration : 2h 28mn Bit rate : 1 271 Kbps Width : 720 pixels Height : 352 pixels Display aspect ratio : 2 Дикие Игры С 1-9 Серии Скачать Через Торрент. 045 Frame rate : 23. 976 fps Color space : YUV Chroma subsampling : 4:2:0 Bit depth : 8 bits Scan type : Progressive Compression mode : Lossy Bits/(Pixel*Frame) : 0. 209 Stream size : 1. 32 GiB (90%) Writing library : XviD 1. 2 1 (UTC 2008-12-04) Audio ID : 1 Format : AC-3 Format/Info : Audio Coding 3 Mode extension : CM (complete main) Format settings, Endianness : Big Codec ID : 2000 Duration : 2h 28mn Bit rate mode : Constant Bit rate : 128 Kbps Channel(s) : 2 channels Channel positions : Front: L R Sampling rate : 48 Игры Скачать Торрент. 0 KHz Compression mode : Lossy Stream size : 136 MiB (9%) Alignment : Split accross interleaves Interleave, duration : 42 ms (1. 00 video frame) Interleave, preload duratio : 500 ms

Нашлось

64897 статей по запросу «фильм спектр скачать торрент»

фильм спектр скачать торрент
10.06.2016 07:33:53

Скачать Фильм 007: СПЕКТР 2015 торрент

Скачать фильм 007: СПЕКТР / Spectre (2015) бесплатно торрентом в хорошем качестве или посмотреть ...

фильм спектр скачать торрент
06.06.2016 05:33:53

Скачать фильм Гладиатор / Gladiator (2000) - Открытый ...

Дата выхода в России (или в Мире): 18.05.2000. Жанр: Боевик, Драма, Зарубежный фильм, Исторический, ...

фильм спектр скачать торрент
13.06.2016 07:33:53

Скачать фильм Запретная зона / Chernobyl Diaries (2012 ...

Дата выхода в России (или в Мире): 24.05.2012. Дата выхода на dvd: 05.07.2012. Жанр: Зарубежный фильм, Ужасы

фильм спектр скачать торрент
10.06.2016 06:33:53

007: Спектр (2015) 1080p Торрент скачать в хорошем качестве

Действия новой картины начинаются в момент времени, когда М, так же в фильме участвует, как ...

фильм спектр скачать торрент
06.06.2016 06:33:53

Торрент фильм - fxtorrent.org

В современном мировом сообществе где есть интернет, те, кто чувствует свои навыки в этом ...

фильм спектр скачать торрент
08.06.2016 05:33:53

Скачать торрент 007: СПЕКТР / Spectre (2015) CamRip ...

Скачать 007: СПЕКТР / Spectre (Сэм Мендес) [2015, боевик, триллер, приключения, CAMRip *PROPER*] DUB - торрент

фильм спектр скачать торрент
11.06.2016 06:33:53

Скачать фильмы через торрент бесплатно в хорошем качестве.

Ищите, где скачать бесплатные фильмы через торрент в хорошем качестве без регистрации?

фильм спектр скачать торрент
08.06.2016 05:33:53

Дэдпул (2016) WebDL 1080p торрент

Скачать торрент Дэдпул (2016) hd бесплатно и в хорошем качестве.

фильм спектр скачать торрент
13.06.2016 07:33:53

Аудиокниги Торрент Аудиокниги онлайн скачать без регистрации

Аудиокниги Торрент скачать бесплатно без регистрации ... Обращение к пользователям. Весь ...

фильм спектр скачать торрент
05.06.2016 06:33:53

Сваты 3 сезон (2009) скачать торрент в хорошем качестве ...

У нас вы можете: скачать фильм Сваты 3 сезон (2009) через торрент в хорошем качестве, для этого ...

Хит-Парад Di Fm Скачать Музыка Скачать Бесплатно Слушать Скачать Хиты Шансона Каталог Vkt Скачать Воробьев Песни Скачать Бесплатно Мережковский Больная Россия Скачать Бесплатно Sparkol Videoscribe Русская Версия Скачать Бесплатно Скачать Майнкрафт История Мод Скачать Ютуб На Компьютер Бесплатно Скачать Minecraft 1.5.2 С Forge И Optifine Скачать Игру Ворлд Оф Танк Аудиокнига По Воспитанию Детей Скачать Торрент Мультфильм Переменная Облачность Скачать Бесплатно "powered By Twitter Script" "copyright * Twitter Script" Android Rooting Apps Цвета Ral Таблица С Названиями Скачать The Weeknd - The Hills Скачать Торрент Игры Для Пк Скачать Быстрые Настройки Для Dir615 Вайфай Epson Stylus Photo 1270 Драйвер Windows 7 64 Android Phones And Prices Thread Наш Сосед Скачать Минус Мишка Фредди 3 Скачать Скачать Игру Goldrush 6.12.2 На Samsung Wave 525 Gt-5250 Скачать Учебник Дмитриевой Всеобщая История 7 Класс Уроки Тетушки Cовы Скачать Торрент Звездные Войны 7 Фильм Скачать На Андроид Скачать И Весна Пьянит Скачать Avast Скачать Бесплатно Песни На10-12 Лет Про Маму Си Язык Программирования Скачать Земфира Цой Торрент