Скачать Сериал Метод 9 И 10 Серии 2015 Через Торрент

Чума (Девяностые) (1-24 серии из 24)«Рождение Новой России Скачать Фильм Бесплатно. Скачать Ианки. » Формат: HDTVRip (AVC), MKV, H 264, AC3 Страна: Россия Режиссер: Алексей Козлов, Александр Устюгов Жанр: детектив, драма, криминал Всего серий: 24 Продолжительность: 24 х ~ 00:45:00 Год выпуска: 2015 В ролях: Сергей Жарков, Александр Устюгов, Юрий Беляев, Борис Щербаков, Екатерина Климова, Сергей Селин, Андрей Горбачёв, Светлана Смирнова-Марцинкевич, Наталья Ткаченко, Никита Рогов, Андрей Аксёнов, Даниил Кокин, Евгений Филимонов, Ксения Ирхина, Вера Шпак, Андрей Белоцерковский, Елизавета Ковалёва, Елена Мартыненко, Яков Шамшин, Юлия Вознесенская, Сергей Яценюк, Иван Батарев, Андрей Шимко, Михаил Соловьев, Всеволод Цурило, Юлия Галкина, Павел Григорьев, Михаил Морозов, Иван Немцов Описание: Насколько может чума поразить общество изнутри под воздействием "чужой" воли история знает не один пример, и этот пример очень красочно представлен в новом сериале телеканала НТВ . Многие помнят годы беззакония начала 90-х, когда страну сотрясали грядущие перемены Не за горами перестройка, сухой закон, смена власти и передел страны . Великая держава на грани разложения, все ценности и наследие эпохи сменяются навязанной чужой культурой Мужчины – любят деньги и женщин . Женщины – любят тех, у кого деньги есть! Но новые реалии по разному воспринимаются героям картины Кому-то удается адаптироваться и вписаться в новые правила жизни, кому-то нет . Резко обозначенный контраст в уровне жизни сразу бросается в глаза и люди оказываются по разные стороны баррикад на фоне криминальной эпохи Рождение олигархов и обнищание народа в этом фильме, где правят лихие деньги девяностых . . Рейтинг: Видео: 1024x576 (16:9), 25 fps, MPEG4 AVC (х264) High@L3 1 ~1965 kbps avg, 0 . 133 bit/pixel Аудио: 48 0 KHz, AC3 Dolby Digital, 6 channels (Front: L C R, Side: L R, LFE), ~384 kbps avg Доп . информация: оригинальная дорожка Dolby Digital 5 1 [НТВ] Полноэкранное изображение (16:9) Рип с WEB-DL 1080р . Автор рипа: Д И . С Релиз группы: MediaInfoОбщее Уникальный идентификатор : 81979591860696949306299849272463092100 (0x3DACB1F0B7D2811CE85E86544FFA6984) Полное имя : D:\Video\Torrent\ . . \chuma_(devyanostye)_s01e01_[tfile me] . mkv Формат : Matroska Версия формата : Version 2 Размер файла : 773 Мбайт Продолжительность : 45 м Режим общего битрейта : Переменный Общий поток : 2396 Кбит/сек Дата кодирования : UTC 2015-10-26 23:14:19 Программа кодирования : Lavf54 . 63 104 Библиотека кодирования : Lavf54 . 63 104 Видео Идентификатор : 1 Формат : AVC Формат/Информация : Advanced Video Codec Профиль формата : Main@L3 . 1 Параметр CABAC формата : Да Параметр ReFrames формата : 1 кадр Параметр GOP формата : M=1, N=15 Идентификатор кодека : V_MPEG4/ISO/AVC Продолжительность : 45 м Вид битрейта : Переменный Битрейт : 1965 Кбит/сек Максимальный битрейт : 6000 Кбит/сек Ширина : 1024 пикселя Высота : 576 пикселей Соотношение сторон : 16:9 Режим частоты кадров : Постоянный Частота кадров : 25,000 кадров/сек Цветовое пространство : YUV Субдискретизация насыщенности : 4:2:0 Битовая глубина : 8 бит Тип развёртки : Прогрессивная Бит/(Пиксели*Кадры) : 0 . 133 Размер потока : 633 Мбайт (82%) Default : Да Forced : Нет Аудио Идентификатор : 2 Формат : AC-3 Формат/Информация : Audio Coding 3 Расширение режима : CM (complete main) Параметр Endianness формата : Big Идентификатор кодека : A_AC3 Продолжительность : 45 м Вид битрейта : Постоянный Битрейт : 384 Кбит/сек Каналы : 6 каналов Расположение каналов : Front: L C R, Side: L R, LFE Частота : 48,0 КГц Битовая глубина : 16 бит Метод сжатия : С потерями Размер потока : 124 Мбайт (16%) Default : Да Forced : НетСсылки на серииВсе раздачиПоказать скриншоты

Нашлось

94777 статей по запросу «скачать сериал метод 9 и 10 серии 2015 через торрент»

скачать сериал метод 9 и 10 серии 2015 через торрент
09.05.2016 11:25:35

Скачать сериал Метод серии 9 и 10 ...

Скачать Метод серии 9 и 10 (2015) 1080p бесплатно Данный файл относится к разделу Сериалы и его ...

скачать сериал метод 9 и 10 серии 2015 через торрент
15.05.2016 12:25:35

Сериал Метод (2015) Скачать торрент

Метод (2015) Название сериала (фильма): Метод Жанр сериала (фильма): триллер, драма Сезон ...

скачать сериал метод 9 и 10 серии 2015 через торрент
07.05.2016 10:25:35

Скачать сериал Метод 2015 через ...

Скачать сериал Метод 2015 через торрент в хорошем качестве бесплатно

скачать сериал метод 9 и 10 серии 2015 через торрент
14.05.2016 11:25:35

Популярные сериалы скачать ...

Всем любителям смешных и увлекательных ситуационных комедий рекомендуем скачать сериал ...

скачать сериал метод 9 и 10 серии 2015 через торрент
13.05.2016 10:25:35

Скачать сериал Шерлок сезон 0,1,2 ...

«Другой мир 5» : съемки стартовали с участием Кейт Бекинсейл 29 Окт. 2015. Фильмы из серии ...

скачать сериал метод 9 и 10 серии 2015 через торрент
10.05.2016 10:25:35

Скачать сериал через торрент ...

Скачать сериал Чума / Девяностые (1-24 серии из 24) (Алексей Козлов, Александр Устюгов) [2015 ...

скачать сериал метод 9 и 10 серии 2015 через торрент
14.05.2016 12:25:35

Скачать сериал через торрент в ...

Качайте любимые сериалы на компьютер с Freshtorrents.ru бесплатно. Бесплатные торренты русских и ...

скачать сериал метод 9 и 10 серии 2015 через торрент
10.05.2016 10:25:35

Скачать сериал Колония, 1 сезон 1 ...

Скачать сериал бесплатно через торрент. Сериал доступен на нашем торрент-трекере ...

скачать сериал метод 9 и 10 серии 2015 через торрент
15.05.2016 11:25:35

Скачать через торрент ...

У нас вы сможете скачать торренты бесплатно без регистрации и смс. Зайдя на наш сайт вам не ...

скачать сериал метод 9 и 10 серии 2015 через торрент
16.05.2016 10:25:35

Скачать лучшие фильмы ...

Скачать лучшие фильмы бесплатно хорошего качества через торрент вы всегда можете на нашем ...

И Кто Его Знает Минусовка Скачать Бесплатно Скачать Игру Автоматы Шаблоны Визиток Скачать Бесплатно В Формате Word Герберт Уелс "открытый Заговор Скачать Бесплатно Песни Михайлова Скачать Бесплатно Без Регистрации Скачать Сетевой Драйвер Для Ноутбука Hp Pavilion G6 Series Скачать Текстуры Для Игры Гта 4 Скачать Игру 3D Инструктор-Без Посадки - Авто.net© Adobe Flash Player Установить Скачать Карта Метро Скачать Игру Дюна На Пк Через Торрент Скачать Windows-7-Ultimate-Idimm-Edition 64 Торрент 2015 Скайп Андроид 2.3 Скачать Adobe Premiere Pro Cc 2015.1 Скачать Презинтацию По Химии 8 Класс Железо Florida Торрент Кино Дискография Скачать Торрент Mp3 Калина Красная 3 2015 Торрент Скачать Танки Amd K16.3 Platform Security Processor Скачать Скачать Игру Гта 4 Fallout 4 Rg Catalyst Torrent Фермер Симулятор Скачать Бесплатно Скачать Игры Для Псп Iso Cso Фоллаут 4 Скачать Торрент Механики Драйвера Для Эпсон Л800 Скачать Бесплатно Скачать Фильм Батальон 2015 Онлайн В Хорошем Качестве Alteros 3D Скачать Бесплатно Nhtrth Скачать Войнушку На Пк